Kατηγορίες

KALEIDOSCOPE (2016) WEBRip x264-ION10 {ΞΕΧΩΡ.ΥΠΟΤ}

Είδος Ταινίας: Thriller
Σκηνοθέτης: Rupert Jones
Σεναριογράφος: Rupert Jones
Ηθοποιοί: Anne Reid, Sinead Matthews, Deborah Findlay
Υπότιτλοι: Ξεχωριστοί Ελληνικοί Υπότιτλοι
Πρεμιέρα: 10 November 2017 (UK)
Μετάφραση: MedievalGuy
iMDB: http://www.imdb.com/title/tt5634088/

Υπόθεση

Αυτό το ψυχολογικό θρίλερ άφορα έναν μεσήλικα τον Carl (Toby Jones) ο οποίος πρόσφατα βγήκε από τη φυλακή, και προσπαθεί ήσυχα να προχωρήσει τη ζωή του. Στο νέο του ξεκίνημα θα βρεθεί αντιμέτωπος με την αυταρχική μητέρα του Aileen (Anne Reid), οπού η παρουσία της θα του ξυπνήσει ένα παιδικό τραύμα. Αυτό που εξελίσσεται είναι ένα παζλ μεταξύ της πραγματικότητας και την ψευδαίσθησης, το παρελθόν και το παρόν.

Spoiler:

Format : MPEG-4
Format profile : Base Media
Codec ID : isom (isom/iso2/avc1/mp41)
File size : 959 MiB
Duration : 1 h 39 min
Overall bit rate : 1 350 kb/s
Movie name : Kaleidoscope.2016.WEBRip.x264-ION10
Writing application : Lavf58.0.101
Comment : Kaleidoscope.2016.WEBRip.x264-ION10

Video
ID : 1
Format : AVC
Format/Info : Advanced Video Codec
Format profile : [email protected]
Format settings : CABAC / 5 Ref Frames
Format settings, CABAC : Yes
Format settings, ReFrames : 5 frames
Codec ID : avc1
Codec ID/Info : Advanced Video Coding
Duration : 1 h 39 min
Bit rate : 1 100 kb/s
Width : 720 pixels
Height : 384 pixels
Display aspect ratio : 1.85:1
Original display aspect rat : 1.85:1
Frame rate mode : Constant
Frame rate : 24.000 FPS
Color space : YUV
Chroma subsampling : 4:2:0
Bit depth : 8 bits
Scan type : Progressive
Bits/(Pixel*Frame) : 0.166
Stream size : 773 MiB (81%)
Title : Kaleidoscope.2016.WEBRip.x264-ION10
Writing library : x264 core 148 r2795M aaa9aa8
Encoding settings : cabac=1 / ref=5 / deblock=1:-1:-1 / analyse=0x3:0x113 / me=umh / subme=9 / psy=1 / psy_rd=1.00:0.15 / mixed_ref=1 / me_range=16 / chroma_me=1 / trellis=2 / 8x8dct=1 / cqm=0 / deadzone=21,11 / fast_pskip=1 / chroma_qp_offset=-3 / threads=24 / lookahead_threads=2 / sliced_threads=0 / nr=0 / decimate=1 / interlaced=0 / bluray_compat=0 / constrained_intra=0 / bframes=3 / b_pyramid=2 / b_adapt=2 / b_bias=0 / direct=3 / weightb=1 / open_gop=0 / weightp=2 / keyint=250 / keyint_min=24 / scenecut=40 / intra_refresh=0 / rc_lookahead=50 / rc=abr / mbtree=1 / bitrate=1100 / ratetol=1.0 / qcomp=0.60 / qpmin=0 / qpmax=69 / qpstep=4 / ip_ratio=1.40 / aq=1:1.00

Audio
ID : 2
Format : AAC
Format/Info : Advanced Audio Codec
Format profile : LC
Codec ID : mp4a-40-2
Duration : 1 h 39 min
Duration_LastFrame : -11 ms
Bit rate mode : Constant
Bit rate : 256 kb/s
Channel(s) : 2 channels
Channel positions : Front: L R
Sampling rate : 48.0 kHz
Frame rate : 46.875 FPS (1024 SPF)
Compression mode : Lossy
Stream size : 182 MiB (19%)
Title : Kaleidoscope.2016.WEBRip.x264-ION10
Language : English
Default : Yes
Alternate group : 1


ΑΝ ΣΑΣ ΑΡΕΣΕΙ Η ΔΟΥΛΕΙΑ ΜΟΥ ΚΑΙ ΘΕΛΕΤΕ ΝΑ ΜΕ ΣΤΗΡΙΞΕΤΕ,
ΚΑΝΤΕ ΕΝΑ ΛΟΓΑΡΙΑΣΜΟ ΓΙΑ EASYBYTEZ & UPLOADED
ΚΑΙ ΚΑΤΕΒΑΣΤΕ ΣΑΝ PREMIUM ΑΠΟ 20 ΔΙΑΦΟΡΕΤΙΚΟΥΣ HOST.

EasyBytez Premium Accounts

Για Uploaded απο Εδώ. http://ul.to/ref/3276399


Links Easybytez & Uploaded

Spoiler:

http://paste2.org/G5eNVjFE

http://pastebin.com/Pa0pTeuk

Αγαπητοί φίλοι πολλές φορές ίσως σε κάποια λίνκ σας βγάζει «Server error»
η προβληματικός πάροχος η σφάλμα plugin έχει λήξει.
Αυτό δεν σημαίνει απαραίτητα ότι τα λίνκ είναι νεκρά. Δοκιμάστε το εξής.
Πάρ΄τε τα λίνκ ή το μονό λίνκ και κατεβάστε το με Browser….Δεξί κλίκ στο λίνκ και άνοιγμα σε νέο παράθυρο…
Θα σας ανοίξει μία καρτελίτσα και εσείς θα πατήσετε αποθήκευση, όχι άνοιγμα…
Αυτόματά το λίνκ θα κατέβει και θα αποθηκευτεί στο φάκελο που εσείς έχετε επιλέξει.

Αφήστε μια απάντηση

Chat - Μόνο Εγγεγραμμένοι Χρήστες
You must be signed in to post a comment
Mr.Planet
(Πέμπτη, Σεπ 20. 2018 08:48 ΠΜ)
οκ θα το κοιταξω.
amarsof
(Τετάρτη, Σεπ 19. 2018 11:59 ΠΜ)
να σε ενημερώσω μόνο ότι στο πρώτο επεισόδιο κάποιο προβληματάκι υπάρχει στους υπότιτλους γιατί η αγγλικά βγαίνουν η αλαμπουρνέζικα όταν πας να το παίξεις οπουδήποτε εκτός πισι,πχ τάμπλετ η τιβι thats all!!!!!
amarsof
(Τετάρτη, Σεπ 19. 2018 11:57 ΠΜ)
mr.planet οκ ευχαριστώ!!!!!
Mr.Planet
(Τρίτη, Σεπ 18. 2018 10:39 ΠΜ)
ξεχωριστοι υποτιτλοι αν καποια στιγμη εχω χρονο θα τους ενσωματωσω.
amarsof
(Δευτέρα, Σεπ 17. 2018 08:06 ΜΜ)
εύχομαι να ενσωματώσετε τους υπότιτλους …………

1 · 2 · 3 · 4 · 5 · »