Kατηγορίες

A BAD MOMS CHRISTMAS / ΜΑΜAΔΕΣ ΜΕ ΚΑΚH ΔΙΑΓΩΓH: ΧΡΙΣΤΟYΓΕΝΝΑ ΕΚΤOΣ ΕΛEΓΧΟΥ (2017) BRRip XviD AC3-EVO {ΕΝΣΩΜ.ΥΠΟΤ}

 

Είδος Ταινίας: Περιπέτεια, Κωμωδία
Ελληνική Πρεμιέρα: 7 Δεκεμβρίου 2017
Σκηνοθέτης: Jon Lucas, Scott Moore
Σενάριο: Jon Lucas, Scott Moore
Ηθοποιοί: Mila Kunis, Kristen Bell, Kathryn Hahn
Υπότιτλοι: Eλληνικοί, Ενσωματωμένοι
Επεξεργασία Υποτίτλων: OFFiCiAL
iMDB: http://www.imdb.com/title/tt6359956/

Υπόθεση

Η Έιμι, η Κάρλα και η Κίκι, οι τρεις φίλες που ξεπέρασαν τα όρια τους όταν δεν έβρισκαν την εκτίμηση που ήθελαν, επαναστατούν τώρα ενάντια στις δυσκολίες της ανώτερης πρόκλησης για τις μαμάδες: τα Χριστούγεννα. Και αν δεν είναι δα δύσκολο να φτιάξεις τις τέλειες γιορτές για την οικογένεια σου, πρέπει να το καταφέρουν ενώ φιλοξενούν και τις δικές τους μητέρες.

Spoiler:

Format/Info : Audio Video Interleave
File size : 1.34 GiB
Duration : 1 h 44 min
Overall bit rate : 1 837 kb/s
Writing application : VirtualDubMod 1.5.10.2 (build 2542/release)
Writing library : VirtualDubMod build 2542/release

Video
ID : 0
Format : MPEG-4 Visual
Format profile : Advanced [email protected]
Format settings : BVOP1
Format settings, BVOP : 1
Format settings, QPel : No
Format settings, GMC : No warppoints
Format settings, Matrix : Default (H.263)
Muxing mode : Packed bitstream
Codec ID : XVID
Codec ID/Hint : XviD
Duration : 1 h 44 min
Bit rate : 1 445 kb/s
Width : 720 pixels
Height : 304 pixels
Display aspect ratio : 2.35:1
Frame rate : 23.976 (24000/1001) FPS
Color space : YUV
Chroma subsampling : 4:2:0
Bit depth : 8 bits
Scan type : Progressive
Compression mode : Lossy
Bits/(Pixel*Frame) : 0.275
Stream size : 1.06 GiB (79%)
Writing library : XviD 64

Audio
ID : 1
Format : AC-3
Format/Info : Audio Coding 3
Codec ID : 2000
Duration : 1 h 44 min
Bit rate mode : Constant
Bit rate : 384 kb/s
Channel(s) : 6 channels
Channel positions : Front: L C R, Side: L R, LFE
Sampling rate : 48.0 kHz
Frame rate : 31.250 FPS (1536 SPF)
Bit depth : 16 bits
Compression mode : Lossy
Stream size : 287 MiB (21%)
Alignment : Split accross interleaves
Interleave, duration : 64 ms (1.53 video frames)
Interleave, preload duration : 500 ms
Service kind : Complete Main


ΑΝ ΣΑΣ ΑΡΕΣΕΙ Η ΔΟΥΛΕΙΑ ΜΟΥ ΚΑΙ ΘΕΛΕΤΕ ΝΑ ΜΕ ΣΤΗΡΙΞΕΤΕ,
ΚΑΝΤΕ ΕΝΑ ΛΟΓΑΡΙΑΣΜΟ ΓΙΑ EASYBYTEZ & UPLOADED
ΚΑΙ ΚΑΤΕΒΑΣΤΕ ΣΑΝ PREMIUM ΑΠΟ 20 ΔΙΑΦΟΡΕΤΙΚΟΥΣ HOST.

EasyBytez Premium Accounts

Για Uploaded απο Εδώ. http://ul.to/ref/3276399


Links Easybytez & Uploaded

Spoiler:

http://paste2.org/P79JYIOP

http://pastebin.com/iFh9WRf6

Αγαπητοί φίλοι πολλές φορές ίσως σε κάποια λίνκ σας βγάζει «Server error»
η προβληματικός πάροχος η σφάλμα plugin έχει λήξει.
Αυτό δεν σημαίνει απαραίτητα ότι τα λίνκ είναι νεκρά. Δοκιμάστε το εξής.
Πάρ΄τε τα λίνκ ή το μονό λίνκ και κατεβάστε το με Browser….Δεξί κλίκ στο λίνκ και άνοιγμα σε νέο παράθυρο…
Θα σας ανοίξει μία καρτελίτσα και εσείς θα πατήσετε αποθήκευση, όχι άνοιγμα…
Αυτόματά το λίνκ θα κατέβει και θα αποθηκευτεί στο φάκελο που εσείς έχετε επιλέξει.

Αφήστε μια απάντηση

Chat - Μόνο Εγγεγραμμένοι Χρήστες
You must be signed in to post a comment
Mr.Planet
(Πέμπτη, Σεπ 20. 2018 08:48 ΠΜ)
οκ θα το κοιταξω.
amarsof
(Τετάρτη, Σεπ 19. 2018 11:59 ΠΜ)
να σε ενημερώσω μόνο ότι στο πρώτο επεισόδιο κάποιο προβληματάκι υπάρχει στους υπότιτλους γιατί η αγγλικά βγαίνουν η αλαμπουρνέζικα όταν πας να το παίξεις οπουδήποτε εκτός πισι,πχ τάμπλετ η τιβι thats all!!!!!
amarsof
(Τετάρτη, Σεπ 19. 2018 11:57 ΠΜ)
mr.planet οκ ευχαριστώ!!!!!
Mr.Planet
(Τρίτη, Σεπ 18. 2018 10:39 ΠΜ)
ξεχωριστοι υποτιτλοι αν καποια στιγμη εχω χρονο θα τους ενσωματωσω.
amarsof
(Δευτέρα, Σεπ 17. 2018 08:06 ΜΜ)
εύχομαι να ενσωματώσετε τους υπότιτλους …………

1 · 2 · 3 · 4 · 5 · »