Kατηγορίες

G I JOE RETALIATION (2013) Extended Action Cut BRRip XviD-AQOS {ΕΝΣΩΜ.ΥΠΟΤ}

 

ΣΚΗΝΟΘΕΣΙΑ : Jon M. Chu
ΣΕΝΑΡΙΟ : Rhett Reese, Paul Wernick
ΗΘΟΠΟΙΟΙ : Dwayne Johnson, Byung-hun Lee, Adrianne Palicki
ΕΙΔΟΣ : Action | Adventure | Sci-Fi
ΠΡΕΜΙΕΡΑ : 28 March 2013 (USA)
ΜΕΤΑΦΡΑΣΗ : T3LL4V1S10N
IMDB : http://www.imdb.com/title/tt1583421/

Υπόθεση

Η ομάδα G.I. Joe (Global Integrated Joint Operating Entity) παγιδεύεται και κατηγορείται για εγκλήματα κατά του κράτους. Ο πρόεδρος αναγκάζεται να τους διακόψει τη λειτουργία. Όσοι παραμένουν ελεύθεροι αντιμετωπίζουν τον Ζάρταν και τους συνεργούς του, στους οποίος συμπεριλαμβάνονται και ηγέτες κρατών.

Spoiler:

Complete name : C:WBR-ERGNYVNGVBA-OEE.avi
Format : AVI
Format/Info : Audio Video Interleave
File size : 900 MiB
Duration : 2h 3mn
Overall bit rate : 1 023 Kbps
Writing application : VirtualDubMod 1.5.10.2 (build 2542/release)
Writing library : VirtualDubMod build 2542/release

Video
ID : 0
Format : MPEG-4 Visual
Format profile : Advanced [email protected]
Format settings, BVOP : 1
Format settings, QPel : No
Format settings, GMC : No warppoints
Format settings, Matrix : Default (H.263)
Muxing mode : Packed bitstream
Codec ID : XVID
Codec ID/Hint : XviD
Duration : 2h 3mn
Bit rate : 886 Kbps
Width : 720 pixels
Height : 304 pixels
Display aspect ratio : 2.35:1
Frame rate : 23.976 fps
Color space : YUV
Chroma subsampling : 4:2:0
Bit depth : 8 bits
Scan type : Progressive
Compression mode : Lossy
Bits/(Pixel*Frame) : 0.169
Stream size : 779 MiB (87%)
Writing library : XviD 64

Audio
ID : 1
Format : MPEG Audio
Format version : Version 1
Format profile : Layer 3
Mode : Joint stereo
Codec ID : 55
Codec ID/Hint : MP3
Duration : 2h 3mn
Bit rate mode : Constant
Bit rate : 128 Kbps
Channel(s) : 2 channels
Sampling rate : 48.0 KHz
Compression mode : Lossy
Stream size : 113 MiB (13%)
Alignment : Split accross interleaves
Interleave, duration : 42 ms (1.00 video frame)
Interleave, preload duration : 500 ms
Writing library : LAME3.99r
Encoding settings : -m j -V 4 -q 2 -lowpass 17 -b 128


ΑΝ ΣΑΣ ΑΡΕΣΕΙ Η ΔΟΥΛΕΙΑ ΜΟΥ ΚΑΙ ΘΕΛΕΤΕ ΝΑ ΜΕ ΣΤΗΡΙΞΕΤΕ,
ΚΑΝΤΕ ΕΝΑ ΛΟΓΑΡΙΑΣΜΟ ΓΙΑ EASYBYTEZ & UPLOADED
ΚΑΙ ΚΑΤΕΒΑΣΤΕ ΣΑΝ PREMIUM ΑΠΟ 20 ΔΙΑΦΟΡΕΤΙΚΟΥΣ HOST.

EasyBytez Premium Accounts

Για Uploaded απο Εδώ. http://ul.to/ref/3276399


Links Easybytez & Uploaded

Spoiler:

http://paste2.org/zyJJNZKb

http://pastebin.com/YHucyz1p

Αγαπητοί φίλοι πολλές φορές ίσως σε κάποια λίνκ σας βγάζει «Server error»
η προβληματικός πάροχος η σφάλμα plugin έχει λήξει.
Αυτό δεν σημαίνει απαραίτητα ότι τα λίνκ είναι νεκρά. Δοκιμάστε το εξής.
Πάρ΄τε τα λίνκ ή το μονό λίνκ και κατεβάστε το με Browser….Δεξί κλίκ στο λίνκ και άνοιγμα σε νέο παράθυρο…
Θα σας ανοίξει μία καρτελίτσα και εσείς θα πατήσετε αποθήκευση, όχι άνοιγμα…
Αυτόματά το λίνκ θα κατέβει και θα αποθηκευτεί στο φάκελο που εσείς έχετε επιλέξει.

Αφήστε μια απάντηση

Chat - Μόνο Εγγεγραμμένοι Χρήστες
You must be signed in to post a comment
Mr.Planet
(Πέμπτη, Σεπ 20. 2018 08:48 ΠΜ)
οκ θα το κοιταξω.
amarsof
(Τετάρτη, Σεπ 19. 2018 11:59 ΠΜ)
να σε ενημερώσω μόνο ότι στο πρώτο επεισόδιο κάποιο προβληματάκι υπάρχει στους υπότιτλους γιατί η αγγλικά βγαίνουν η αλαμπουρνέζικα όταν πας να το παίξεις οπουδήποτε εκτός πισι,πχ τάμπλετ η τιβι thats all!!!!!
amarsof
(Τετάρτη, Σεπ 19. 2018 11:57 ΠΜ)
mr.planet οκ ευχαριστώ!!!!!
Mr.Planet
(Τρίτη, Σεπ 18. 2018 10:39 ΠΜ)
ξεχωριστοι υποτιτλοι αν καποια στιγμη εχω χρονο θα τους ενσωματωσω.
amarsof
(Δευτέρα, Σεπ 17. 2018 08:06 ΜΜ)
εύχομαι να ενσωματώσετε τους υπότιτλους …………

1 · 2 · 3 · 4 · 5 · »