Kατηγορίες

BAAGHI (2016) BluRay 720p 5.1 CH 1.8 GB {ΞΕΧ+ENΣΩΜ.ΥΠΟΤ}

 

Είδος Ταινίας: Action, Romance
Πρεμιέρα: 29 April 2016 (USA)
Σκηνοθέτης: Sabir Khan
Σενάριο: Sanjeev Datta
Ηθοποιοί: Shraddha Kapoor, Tiger Shroff, Sudheer Babu Posani
Υπότιτλοι: Ελληνικοί Ενσωματωμένοι & Σε Ξεχωριστό Αρχείο
Μετάφραση: spirit
IMDB : http://www.imdb.com/title/tt4864932/

Υπόθεση

Η ιστορία του Ronny, ενός εικοσιτριάχρονου επαναστάτη από το Δελχί. Φοβούμενος για την απειθαρχία του, ο πατέρας του τον στέλνει σε μια πειθαρχική ακαδημία στην Κεράλα. Στο δρόμο για την ακαδημία, συναντά την Siya ο οποία επίσης διακατέχεται από μια επαναστατική σπίθα, αλλά παρ ‘όλα αυτά νιώθουν έλξη ο ένας για τον άλλο. Μετά την εγγραφή του, ο Ronny γνωρίζει το αστέρι της ακαδημίας, τον Raghav και τα πράγματα πάνε στραβά μεταξύ τους όταν ο Raghav ερωτεύεται την Siya, επίσης. Χρόνια αργότερα ο Ronny πληροφορείται ότι η Siya έχει απαχθεί και καλείται για να την σώσει. Χαμένος στη μέση μιας νέας πόλης, ο Ronny έρχεται πρόσωπο με πρόσωπο με τον εχθρό του, τον Raghav. Και οι δύο εξακολουθούν να αγαπούν την Siya άνευ όρων και είναι σε μάχονται για να κερδίσουν την καρδιά της. Αλλά μόνο ένας θα τα καταφέρει..

Spoiler:

Format : Matroska
Format version : Version 4 / Version 2
File size : 1.81 GiB
Duration : 2 h 14 min
Overall bit rate : 1 929 kb/s
Encoded date : UTC 2017-07-28 17:25:51
Writing application : mkvmerge v13.0.0 (‘The Juggler’) 64bit
Writing library : libebml v1.3.4 + libmatroska v1.4.5

Video
ID : 2
Format : AVC
Format/Info : Advanced Video Codec
Format profile : [email protected]
Format settings, CABAC : Yes
Format settings, RefFrames : 4 frames
Codec ID : V_MPEG4/ISO/AVC
Duration : 2 h 14 min
Bit rate : 1 700 kb/s
Width : 1 280 pixels
Height : 544 pixels
Display aspect ratio : 2.35:1
Frame rate mode : Constant
Frame rate : 24.000 FPS
Color space : YUV
Chroma subsampling : 4:2:0
Bit depth : 8 bits
Scan type : Progressive
Bits/(Pixel*Frame) : 0.102
Stream size : 1.60 GiB (88%)
Writing library : x264 core 142 r2479 dd79a61
Encoding settings : cabac=1 / ref=1 / deblock=1:0:0 / analyse=0x1:0x111 / me=hex / subme=2 / psy=1 / psy_rd=1.00:0.00 / mixed_ref=0 / me_range=16 / chroma_me=1 / trellis=0 / 8x8dct=0 / cqm=0 / deadzone=21,11 / fast_pskip=1 / chroma_qp_offset=0 / threads=60 / lookahead_threads=4 / sliced_threads=0 / nr=0 / decimate=1 / interlaced=0 / bluray_compat=0 / constrained_intra=0 / bframes=3 / b_pyramid=2 / b_adapt=1 / b_bias=0 / direct=1 / weightb=1 / open_gop=0 / weightp=1 / keyint=240 / keyint_min=24 / scenecut=40 / intra_refresh=0 / rc_lookahead=10 / rc=abr / mbtree=1 / bitrate=1700 / ratetol=1.0 / qcomp=0.60 / qpmin=0 / qpmax=69 / qpstep=4 / vbv_maxrate=20000 / vbv_bufsize=25000 / nal_hrd=none / filler=0 / ip_ratio=1.40 / aq=1:1.00
Default : Yes
Forced : No
Color range : Limited
Color primaries : BT.709
Transfer characteristics : BT.709
Matrix coefficients : BT.709

Audio
ID : 3
Format : AC-3
Format/Info : Audio Coding 3
Format settings, Endianness : Big
Codec ID : A_AC3
Duration : 2 h 14 min
Bit rate mode : Constant
Bit rate : 224 kb/s
Channel(s) : 6 channels
Channel positions : Front: L C R, Side: L R, LFE
Sampling rate : 48.0 kHz
Frame rate : 31.250 FPS (1536 SPF)
Bit depth : 16 bits
Compression mode : Lossy
Delay relative to video : -5 ms
Stream size : 215 MiB (12%)
Title : Surround
Service kind : Complete Main
Default : Yes
Forced : No

Text
ID : 1
Format : UTF-8
Codec ID : S_TEXT/UTF8
Codec ID/Info : UTF-8 Plain Text
Duration : 2 h 13 min
Bit rate : 73 b/s
Count of elements : 1411
Stream size : 72.2 KiB (0%)
Title : Greek
Language : Greek
Default : Yes
Forced : No


ΑΝ ΣΑΣ ΑΡΕΣΕΙ Η ΔΟΥΛΕΙΑ ΜΟΥ ΚΑΙ ΘΕΛΕΤΕ ΝΑ ΜΕ ΣΤΗΡΙΞΕΤΕ,
ΚΑΝΤΕ ΕΝΑ ΛΟΓΑΡΙΑΣΜΟ ΓΙΑ EASYBYTEZ & UPLOADED
ΚΑΙ ΚΑΤΕΒΑΣΤΕ ΣΑΝ PREMIUM ΑΠΟ 20 ΔΙΑΦΟΡΕΤΙΚΟΥΣ HOST.

http://www.easybytez.com/free404761.html

EasyBytez Premium Accounts

Για Uploaded απο Εδώ. http://ul.to/ref/3276399


Links Easybytez & Uploaded

Spoiler:

http://paste2.org/E16FJXyC

Αγαπητοί φίλοι πολλές φορές ίσως σε κάποια λίνκ σας βγάζει «Server error»
η προβληματικός πάροχος η σφάλμα plugin έχει λήξει.
Αυτό δεν σημαίνει απαραίτητα ότι τα λίνκ είναι νεκρά. Δοκιμάστε το εξής.
Πάρ΄τε τα λίνκ ή το μονό λίνκ και κατεβάστε το με Browser….Δεξί κλίκ στο λίνκ και άνοιγμα σε νέο παράθυρο…
Θα σας ανοίξει μία καρτελίτσα και εσείς θα πατήσετε αποθήκευση, όχι άνοιγμα…
Αυτόματά το λίνκ θα κατέβει και θα αποθηκευτεί στο φάκελο που εσείς έχετε επιλέξει.

Αφήστε μια απάντηση

Chat - Μόνο Εγγεγραμμένοι Χρήστες
You must be signed in to post a comment
Mr.Planet
(Πέμπτη, Σεπ 20. 2018 08:48 ΠΜ)
οκ θα το κοιταξω.
amarsof
(Τετάρτη, Σεπ 19. 2018 11:59 ΠΜ)
να σε ενημερώσω μόνο ότι στο πρώτο επεισόδιο κάποιο προβληματάκι υπάρχει στους υπότιτλους γιατί η αγγλικά βγαίνουν η αλαμπουρνέζικα όταν πας να το παίξεις οπουδήποτε εκτός πισι,πχ τάμπλετ η τιβι thats all!!!!!
amarsof
(Τετάρτη, Σεπ 19. 2018 11:57 ΠΜ)
mr.planet οκ ευχαριστώ!!!!!
Mr.Planet
(Τρίτη, Σεπ 18. 2018 10:39 ΠΜ)
ξεχωριστοι υποτιτλοι αν καποια στιγμη εχω χρονο θα τους ενσωματωσω.
amarsof
(Δευτέρα, Σεπ 17. 2018 08:06 ΜΜ)
εύχομαι να ενσωματώσετε τους υπότιτλους …………

1 · 2 · 3 · 4 · 5 · »